Saturday, October 1, 2022
Serving Colorado's 285 Corrider and the Developer Community 

Welcome to the Morning Dew. In addition to the community  news, this site also contains music lists and links, and some of our personal picture collections.
This page last updated on 4/3/2019 by Morning Dew Consulting.
Download Shows     ETree Archives    PhishHook BitTorrent Page   Download BitTorrent
BitTorrent software is required for downloading. For more information, go to the BitTorrent Home Page.  If no shows appear, either the RSS feed is malformed, or the eTree  site is down.  Click here for additional information.
End Of The Line Center Stage Theatre Atlanta, Georgia 9/30/2022 (Z-Man Schoeps CCM4V'S)
End Of The Line
Center Stage Theatre
Atlanta, Georgia
9/30/2022

Source: Schoeps CCM4V's>Lunatec V2>Sound Devices 722 (24/44.1)
BOB/DFC/KFC/ZFC/AARP Clamped To The Rail Behind The Soundboard, 6 1/2' High
DSP: Sound Devices 722>Sound Forge 10.0>CD Wave>flac(16)
ID3 Tagged In Foobar 2000
Recorded By: Z-Man
Seeded By: Z-Man
A Team Dirty South Recording

Disc I

01 House PA Music >
02 Hot 'Lanta >
03 Statesboro Blues >
04 Revival
05 Ain't Wastin' Time No More >
06 Come And Go Blues >
07 Don't Keep Me Wonderin'
08 Band Introdutions
09 *Black-Hearted Woman

Disc II

01 Blue Sky >
02 Every Hungry Woman
03 Midnight Rider >
04 Jam
05 One Way Out >
06 Drum Solo >
07 One Way Out
08 #Whipping Post

* With Other One Tease
# With Norwegian Wood Jam

Conor Kelly - Guitar And Vocals
Adam Gorman - Guitar And Vocals
Justin Smith - Keyboards And Vocals
Casey Conway - Bass
Ryan McClanahan - Percussion
Chase Bader - Drums
Dave Zuba - Drums

endof2022-09-30d01t01.flac:b583a63f42222f57b4d50140a8ad1628
endof2022-09-30d01t02.flac:733dfda03a62cc42eaf886959a8d705d
endof2022-09-30d01t03.flac:4fb51b5d2d1acacee8fa239617159949
endof2022-09-30d01t04.flac:4b8b7ee407260ec71be4984dfe5c417c
endof2022-09-30d01t05.flac:23e46b6725715ffbd8317b02255713e9
endof2022-09-30d01t06.flac:996fd806305405c3fbe2b9f42ca3583a
endof2022-09-30d01t07.flac:56481a8f5680c5312b040e526cdd6fd4
endof2022-09-30d01t08.flac:fa56b2dbd61bf7e4433e2fd904093707
endof2022-09-30d01t09.flac:d69d487595c443093f589bebe81749f4
endof2022-09-30d02t01.flac:234e39b4c8a2a584d3c104d756ff80be
endof2022-09-30d02t02.flac:cc28705ff63cf52eaca8a1d2a74f9705
endof2022-09-30d02t03.flac:62b3053b78280dec854c7f1ffa6c0e9c
endof2022-09-30d02t04.flac:caa84de46590b6a8bbf7c2230f30332f
endof2022-09-30d02t05.flac:64d4fe21aff97288aeaa79854edf0fe0
endof2022-09-30d02t06.flac:795b6c5e05c82b73449eb84644cda68d
endof2022-09-30d02t07.flac:a4f81e02f385581009744cfb5bd0de30
endof2022-09-30d02t08.flac:f92d570982e904e7a8f20d4e2227dd0b

length expanded size cdr WAVE problems fmt ratio filename
2:47.57 29592908 B --- -- ---xx flac 0.3629 endof2022-09-30d01t01.flac
5:28.73 58030940 B --- -- ---xx flac 0.5154 endof2022-09-30d01t02.flac
4:53.26 51746396 B --- -- ---xx flac 0.5449 endof2022-09-30d01t03.flac
5:46.27 61097948 B --- -- ---xx flac 0.5175 endof2022-09-30d01t04.flac
6:38.59 70346012 B --- -- ---xx flac 0.5256 endof2022-09-30d01t05.flac
7:16.53 77035100 B --- -- ---xx flac 0.5491 endof2022-09-30d01t06.flac
4:19.58 45824060 B --- -- ---xx flac 0.5692 endof2022-09-30d01t07.flac
1:27.22 15398588 B --- -- ---xx flac 0.3803 endof2022-09-30d01t08.flac
12:52.35 136263164 B --- -- ---xx flac 0.5525 endof2022-09-30d01t09.flac
10:50.04 114669452 B --- -- ---xx flac 0.4976 endof2022-09-30d02t01.flac
9:02.60 95749964 B --- -- ---xx flac 0.5248 endof2022-09-30d02t02.flac
3:17.21 34800236 B --- -- ---xx flac 0.5072 endof2022-09-30d02t03.flac
1:44.66 18500876 B --- -- ---xx flac 0.4088 endof2022-09-30d02t04.flac
2:40.68 28383980 B --- -- ---xx flac 0.5272 endof2022-09-30d02t05.flac
3:52.17 40964828 B --- -- ---xx flac 0.4651 endof2022-09-30d02t06.flac
3:07.65 33139724 B --- -- ---xx flac 0.4697 endof2022-09-30d02t07.flac
13:43.33 145254860 B --- -- ---xx flac 0.5346 endof2022-09-30d02t08.flac
99:50.69 1056799036 B 0.5173 (17 files)


Cool Cool Cool (aka most of Turkuaz) - 2022-09-17 - The Brooklyn Mirage - Brooklyn, NY - AKG 393s - flac16
Cool Cool Cool
Saturday, September 17, 2022
Brooklyn, NY @ The Brooklyn Mirage - Brooklyn Comes Alive

Source: AKG 393's > Edirol R44
ROB/DFC 50' From Stage, 10' High
DSP: Edirol R44 > Sound Forge 10.0 > CD Wave > Trader's Little Helper > flac(16)
by Rick Duro

Tracking/Encoding: 16bit WAV > Cool Edit Pro (amplified 3.6db) > CD Wave Editor (tracking) > Trader's Little Helper (fix SBEs + FLAC Level 8) > MP3Tag (ID tags)
by Funk It Blog - September 30, 2022

01. Gotta Give It Away (If You're Gonna Keep It) [Steve Swatkins]
02. NAH [Shira Elias]
03. Don't Do It [The Band]
04. With You [Sammi Garett]
05. Hair [Graham Central Station] (ft. Colin Miller)
06. "Make It Through" [Xavier Lynn]
07. Sing A Simple Song [Sly & The Family Stone]
08. ??? [DJ Yesmann] (ft. Colin Miller)
09. The Chain [Fleetwood Mac]

Shira Elias - vocals
Sammi Garett - vocals
Chris Brouwers - trumpet
Nate Edgar - bass (subbing for Josh Schwartz)
Greg Sanderson - alto & tenor sax
Michelangelo Carubba - drums
Craig Brodhead (aka DJ Yesmann) - guitar & keyboards

Guests:
Collin Miller - vocals


https://liveforlivemusic.com/features/cool-cool-cool-new-avengers-turkuaz-cinematic-universe-interview/

Jefferson Starship 1992-03-27 Rheem Theater, Moraga, CA
Jefferson Starship - The Next Generation
1992-03-27
The Rheem Theater
Moraga,CA

Source:
Unknown mics & deck > MAC > C(x) Lowgen

Transfer info:
C(x) Maxell XLIIS > Denon DRM-500 (no Dolby) > PC via USB > Cubase LE (split, edits) & 16/44 conversion > TLH > FLAC8 (sbefix) > Foobar tags
Transfer on Sept 22, 2022 by L. Shore

01 We Can Be Together
02 Crown Of Creation
03 Wooden Ships
04 All Fly Away
05 I'm On Fire
06 Shadowlands (with Amy Excolere)
07 Blows Against The Empire
Sunrise > Hijack > Home > Have You Seen The Stars Tonite > XM > Starship
08 Papa John's Other
09 I'm Movin'
10 When The Earth Moves Again
11 Papa John's Down Home Blues
12 Over The Rainbow (Papa John solo)
13 Ride The Tiger
14 Poem "For The Good Of All"
15 America

Encore:
16 Girl With Hungry Eyes
17 Volunteers
18 The Other Side of This Life

Band:
Paul Kantner - guitar/vocals
Jack Casady - bass
Papa John Creach - fiddle
Tim Gorman - keyboards/vocals
Prairie Prince - drums/percussion
Mark "Slick" Aguilar - guitar/vocals
Darby Gould - vocals

*Guest:
Amy Excolere - vocals on Shadowlands

Notes:
- "We Can Be Together" stereo snaps in at 0.41 secs. Recording levels fluctuate at start. Quickly set and remain stable for remainder of recording
- "Papa John's Other" is cut, tape flip
- "America" is cut, incomplete

length expanded size cdr WAVE problems fmt ratio filename
4:17.15 45370124 B --- -- ---xx flac 0.5594 01 We Can Be Together.flac
3:25.69 36324332 B --- -- ---xx flac 0.6106 02 Crown Of Creation.flac
5:48.23 61441340 B --- -- ---xx flac 0.6166 03 Wooden Ships.flac
5:46.02 61039148 B --- -- ---xx flac 0.5979 04 All Fly Away.flac
5:28.07 57875708 B --- -- ---xx flac 0.6042 05 I'm On Fire.flac
4:54.57 51995708 B --- -- ---xx flac 0.6075 06 Shadowlands.flac
15:00.29 158828252 B --- -- ---xx flac 0.6174 07 Blows Against The Empire.flac
4:58.37 52654268 B --- -- ---xx flac 0.6054 08 Papa John's Other.flac
6:09.25 65150444 B --- -- ---xx flac 0.6049 09 I'm Movin.flac
4:17.44 45438332 B --- -- ---xx flac 0.6221 10 When The Earth Moves Again.flac
5:30.38 58301420 B --- -- ---xx flac 0.6212 11 Papa John's Down Home Blues.flac
5:12.61 55180316 B --- -- ---xx flac 0.5481 12 Over The Rainbow.flac
6:24.01 67739996 B --- -- ---xx flac 0.6280 13 Ride The Tiger.flac
6:41.30 70807004 B --- -- ---xx flac 0.5380 14 Poem 'For The Good Of All'.flac
7:05.09 74991212 B --- -- ---xx flac 0.6100 15 America.flac
3:47.17 40082828 B --- -- ---xx flac 0.6008 16 Girl With Hungry Eyes.flac
4:54.20 51908684 B --- -- ---xx flac 0.6190 17 Volunteers.flac
5:53.04 62278652 B --- -- ---xx flac 0.6188 18 The Other Side of This Life.flac
105:34.38 1117407768 B 0.6029 (18 files)

Lettuce - 2022-09-17 - The Brooklyn Mirage - Brooklyn, NY - AKG 393s - flac16
Lettuce
Saturday, September 17, 2022
Brooklyn, NY @ The Brooklyn Mirage - Brooklyn Comes Alive

Source: AKG 393's > Edirol R44
ROB/DFC 50' From Stage, 10' High
DSP: Edirol R44 > Sound Forge 10.0 > CD Wave > Trader's Little Helper > flac(16)
by Rick Duro

Tracking/Encoding: 16bit WAV > Cool Edit Pro (amplified 3.6db) > CD Wave Editor (tracking) > Trader's Little Helper (fix SBEs + FLAC Level 8) > MP3Tag (ID tags)
by Funk It Blog - September 29, 2022

01. Introduction by Bee Getz
02. Phyllis (inc. Only You [112 ft. The Notorious B.I.G. & Mase]) >
03. House of Lett (inc. Superstar Pt. Zero [K-OS]) >
04. The Flu >
05. Trapezoid
06. Vámonos
07. It's a Family Affair [Sly & the Family Stone] > Let It GOGO >
08. Everybody Wants to Rule the World [Tears for Fears] (Soulquarians Remix)
09. Squadlive
10. Gravy Train
11. Everything's Gonna Be Alright
12. Madison Square

Erick "Jesus" Coomes - bass
Adam Deitch - drums & percussion
Adam "Shmeeans" Smirnoff - guitar
Ryan Zoidis - saxophone & percussion
Eric "Benny" Bloom - trumpet & percussion
Nigel Hall - keyboards & vocals

phish: 2021-10-26: santa barbara bowl, santa barbara, ca: fob mk22->vms @ 9624
phish
26 october 2021
santa barbara bowl
santa barbara, ca

location: fob: dfc, last row of the pit; on stand approx. 6'

source: schoeps mk22 (nos) -> kcy -> vms5u -> sd mixpre 6ii, recorded @ 96 kHz, 32 bit (float);
seeded @ 96 kHz 24 bit

transfer: sd mixpre 6ii -> usb c -> cpu

edits: channels summed, fades in/out added, normalized, dithered, track split & flac'd in magix
sound forge pro audio studio 16

taped by: team no drama


please contact jadedphan@hotmail.com eith any questions, concerns, or comments


set I:

01. rowdy wooks
02. pebbles & marbles ->
03. makisupa Policeman ->
04. sample in a jar ->
05. the silver light
06. halley's comet ->
07. mountains in the mist
08. Mull ->
09. set your soul free

set II:

01. rowdy wooks
02. blaze on ->
03. beneath a sea of stars, part 1 ->
04. 46 Days ->
05. sneakin' sally through the alley ->
06. weekapaug groove
07. about to run
08. if i could ->
09. sigma oasis
10. encore break:
11. fuck your face ->
12. meatstick
13. the lizards
14. a life beyond the dream

phish2021-10-26_fob mk22_s01t01_rowdy wooks.flac:e6a75d61a31f802c47ce6d29650379d9
phish2021-10-26_fob mk22_s01t02_pebbles and marbles_.flac:993aa2abbc5829cfa784ee0a4d88df8c
phish2021-10-26_fob mk22_s01t03_makisupa policeman.flac:d32db0c19c779c7c7d0496cba8c1b9dd
phish2021-10-26_fob mk22_s01t04_sample in a jar_.flac:c6f609dbb203cae8751c2932aa175188
phish2021-10-26_fob mk22_s01t05_the silver light_.flac:054757798e7e6a9e87c9adb061d9f392
phish2021-10-26_fob mk22_s01t06_halley's comet_.flac:f4d27b72be1d8c70009c02e6572241b2
phish2021-10-26_fob mk22_s01t07_mountains in the mist.flac:58121d1daaedbbf15b7d2e371a6b6ce5
phish2021-10-26_fob mk22_s01t08_mull_.flac:390ee501e230bb112a904d95ea086d97
phish2021-10-26_fob mk22_s01t09_set your soul free.flac:da4e4b766c6ee1b689041f283b81452a
phish2021-10-26_fob mk22_s02t01_rowdy wooks.flac:b13eecadc08c609a526dc9c04eb94ca0
phish2021-10-26_fob mk22_s02t02_blaze on_.flac:43d867ae2be9ea61dc2ca64880529848
phish2021-10-26_fob mk22_s02t03_beneath a sea of stars (pt two).flac:da338af673d65e8245f2e9163595d67f
phish2021-10-26_fob mk22_s02t04_46 days_.flac:b83c90bd7d4426919747c14ac2e1f694
phish2021-10-26_fob mk22_s02t05_sneakin' salley through the alley_.flac:df6ceb0615da70ae9971a52f35160baa
phish2021-10-26_fob mk22_s02t06_weekapaug groove.flac:a5e89a0694b967653bfbd18c3ce86243
phish2021-10-26_fob mk22_s02t07_about to run.flac:c9c7a3249eb26d7831f65c798150d19d
phish2021-10-26_fob mk22_s02t08_if i could.flac:0b32b07c5b612ee6a023357ecd3eaa48
phish2021-10-26_fob mk22_s02t09_sigma oasis.flac:5d6a51ada2c796369b8b1715a2002ff2
phish2021-10-26_fob mk22_s02t10_encore break.flac:d3bce99c6ff46e4424429062e7e02b24
phish2021-10-26_fob mk22_s02t11_fuck your face.flac:7ec3c52328f37d0877fb4d5811528e57
phish2021-10-26_fob mk22_s02t12_meatstick.flac:f4be4b72f10fc6176b906f92dd0f96e4
phish2021-10-26_fob mk22_s02t13_the lizards.flac:a2fcf78c5902c897133d4b17fdf3dfbe
phish2021-10-26_fob mk22_s02t14_a life beyond the dream.flac:6f591a527d81e155510b03340861f2e2

phish: 2022-05-28: wharf amphitheater, orange beach, sc: ots 122L_m2d2 @ 9624
phish
28 may 2022
the wharf amphitheater
orange beach, sc

taped by team no drama

location: ots, dfc; last row of lower level seats behind foh; on stand approx. 12'

source: schoeps cmc122L (nos) -> ak2Lsu -> k5s -> aksu2ta3 -> sonosax sx-m2d2 -> sd mixpre 6ii;
recorded @ 192 kHz, 32 bit (float); seeded @ 96 kHz 24 bit

transfer: sd mixpre 6ii -> usb c -> cpu

edits: channels summed, fades in/out added, normalized, resampled, dithered, track split & flac'd in magix
sound forge pro audio studio 16.1; flac files tagged using foobar2000

taped by: team no drama

contact jadedphan@hotmail.com with questions, concerns, or comments

192 kHz 24 bit files available upon request

set I:

01. rowdy wooks
02. sigma oasis
03. possum
04. ac/dc bag
05. reba
06. roggae
07. my mind's got a mind of its own
08. the final hurrah ->
09. free

set II:

01. rowdy wooks
02. a wave of hope ->
03. mr. completely ->
04. walk away ->
05. golden age
06. what's the use?
07. the moma dance
08. if i could
09. run like an antelope
10. encore break
11. i am in miami
11. izabella

phish2022-05-28_122L_96k_s01t01.flac:6186ff94436691657d1d659713423e5c
phish2022-05-28_122L_96k_s01t02.flac:3ffed0f684fedc430cb0a83b9680ec54
phish2022-05-28_122L_96k_s01t03.flac:923c26153a9c373527f9c4442aa0ab2a
phish2022-05-28_122L_96k_s01t04.flac:960eff219270604cc2daeeae4ac69d79
phish2022-05-28_122L_96k_s01t05.flac:0912de3662ae643a0e097007eab0d9e1
phish2022-05-28_122L_96k_s01t06.flac:7a382fcc0f03e91c732609b3516e3a9f
phish2022-05-28_122L_96k_s01t07.flac:7a262c3c413aa61542f3c81c45ab0481
phish2022-05-28_122L_96k_s01t08.flac:9769213fa01fe34ecf36c553cc17f506
phish2022-05-28_122L_96k_s01t09.flac:fe526853c86604c6725b9e3bdc664a3e
phish2022-05-28_122L_96k_s02t01.flac:251727f5aab52abf6079b3ebf9a5b0c6
phish2022-05-28_122L_96k_s02t02.flac:360877632e4908f59549855ed781022d
phish2022-05-28_122L_96k_s02t03.flac:5ad7d5428cb508d9659e450be0f4ced9
phish2022-05-28_122L_96k_s02t04.flac:97028118abaa8f2f20f0ebb56c4268db
phish2022-05-28_122L_96k_s02t05.flac:69f394984c2a1bd50c9582892d445252
phish2022-05-28_122L_96k_s02t06.flac:c0022fd90999d618a5b3d72935fb741a
phish2022-05-28_122L_96k_s02t07.flac:86b259cfbd2bb356d4e321f30365d166
phish2022-05-28_122L_96k_s02t08.flac:e97c9d37d6925dc602e4ca8b6983bac5
phish2022-05-28_122L_96k_s02t09.flac:c1694fa6507de90ef210a3e6664bcd77
phish2022-05-28_122L_96k_s02t10.flac:4e42a53cb4c2a13109c5c9459d6d6a5c
phish2022-05-28_122L_96k_s02t11.flac:38350b4de682b99cd5b886ce11b1bb7f
phish2022-05-28_122L_96k_s02t12.flac:3de051521104d2ed97384890ea47699a


The Ain't Sisters The Moonshadow Tavern Tucker, Georgia 9/26/2022 (Z-Man Schoeps CCM4V'S FOB)
The Ain't Sisters
The Moonshadow Tavern
Tucker, Georgia
9/26/2022

Source: Schoeps CCM4V's>Lunatec V2>Sound Devices 722 (24/44.1)
FOB/DFC/KFC/ZFC/AARP 10' From Stage, 6 1/2' High
DSP: Sound Devices 722>Sound Forge 10.0>CD Wave>flac(16)msters
ID3 Tagged In Foobar 2000
Recorded By: Z-Man
Seeded By: Z-Man
A Team Dirty South Recording

Disc I

01 Greeting
02 Star Spangled Banner Intro >
03 American Dream
04 Atomic
05 Never Give Up
06 One Track Mind >
07 We Are Birds
08 This Side Of The Creek
09 ?
10 Horses
11 Changes >
12 Appalachian Wrecking Ball

Arrie Bozeman - Electric Guitar And Vocals
Barb Carbon - Acoustic Guitar And Vocals
Justin Boudreau - Bass
? - Drums

theaint2022-09-26d01t01.flac:0547b28fced53704965785ca8e7e13b6
theaint2022-09-26d01t02.flac:2703782514f8fc1dca9a9576aa32b755
theaint2022-09-26d01t03.flac:dd83851ecebd145c06490ac7fdf5140e
theaint2022-09-26d01t04.flac:e0ccf8c39a5a7321ebfbdc31964dc707
theaint2022-09-26d01t05.flac:cdd126f9626e0a049a492bbfc395ef6f
theaint2022-09-26d01t06.flac:ad667b4293400c2422e6a4eebbd967e4
theaint2022-09-26d01t07.flac:51f2ca5b9d7f5183ccb868012759676e
theaint2022-09-26d01t08.flac:c5a519f7d1892e53d1c0381be58e0049
theaint2022-09-26d01t09.flac:b7eda8178d6baf09e05025c5aff284eb
theaint2022-09-26d01t10.flac:8d4f2035daa17cd6086eaec17d0c67ea
theaint2022-09-26d01t11.flac:5a614b5c01b73d61d884918bcf2a6271
theaint2022-09-26d01t12.flac:d66ca78013471109db96fe48e5314b74

length expanded size cdr WAVE problems fmt ratio filename
0:46.43 8215580 B --- -- ---xx flac 0.2820 theaint2022-09-26d01t01.flac
0:21.39 3796172 B --- -- ---xx flac 0.4470 theaint2022-09-26d01t02.flac
4:12.43 44553980 B --- -- ---xx flac 0.5545 theaint2022-09-26d01t03.flac
3:46.39 39958172 B --- -- ---xx flac 0.5151 theaint2022-09-26d01t04.flac
3:58.14 42016172 B --- -- ---xx flac 0.4965 theaint2022-09-26d01t05.flac
3:49.07 40412108 B --- -- ---xx flac 0.5544 theaint2022-09-26d01t06.flac
5:01.37 53183468 B --- -- ---xx flac 0.4811 theaint2022-09-26d01t07.flac
4:18.71 45678236 B --- -- ---xx flac 0.5431 theaint2022-09-26d01t08.flac
1:11.12 12552668 B --- -- ---xx flac 0.3100 theaint2022-09-26d01t09.flac
5:13.29 55281452 B --- -- ---xx flac 0.5114 theaint2022-09-26d01t10.flac
3:40.28 38873900 B --- -- ---xx flac 0.5166 theaint2022-09-26d01t11.flac
4:05.43 43319180 B --- -- ---xx flac 0.5378 theaint2022-09-26d01t12.flac
40:25.30 427841088 B 0.5107 (12 files)


Medeski Martin & Wood - 2022-09-17 - The Brooklyn Mirage - Brooklyn, NY - AKG 393s - flac16
Medeski Martin & Wood
- Brooklyn Comes Alive -
The Brooklyn Mirage, Brooklyn, NY
Saturday, September 17, 2022

Source: AKG 393's > Edirol R44
ROB/DFC 50' From Stage, 10' High
DSP: Edirol R44 > Sound Forge 10.0 > CD Wave > Trader's Little Helper > flac(16)
recorded, tracked, and flac'd by Rick Duro

DSP: decoded in dBPowerAmp > processed in Sound Forge 14.0 (3.46 dB gain addition, fades) > encoded in dBPowerAmp > tagged in Mp3tag
processed and posted by djphrayz

One Set
01. Philly Cheese Blunt >
02. Night Marchers >
03. Coconut Boogaloo >
04. Shacklyn Knights >
05. Last Chance To Dance Trance (Perhaps)
06. Henduck >
07. Just Like I Pictured It >
08. Start/Stop >
09. Nocturne
10. Big Time >
11. Nocturnal Transmission >
12. Queen Bee
13. 'illyB Speaks'

The Word 2022-07-03 Peach Music Festival Scranton, Pa. SKM140>SD Mix Pre 6 24/48
The Word
Peach Music Festival
The Pavilion at Montage Mounrtain
Scranton, PA
July 3, 2022

6:30 PM

Source: Neumann AK40>LC3>Sound Devices Mix Pre 6 @ 24/48
Location: At SBD, left of center. Box 16. Stand at 12 feet.
Transfer: SD card>Adobe Audition 3.0>CD wav>TLH>Flac24
Taper: Tony Suraci

Set One:

01 Intro Jam
02 New Word Order
03 (unknown title)
04 Without God
05 Blood on That Rock
06 Come By Here
07 Play All Day
08 Glory Glory
09 Chocolate Cowboy
10 Joyful Sounds
11 I'll Fly Away

Trey Anastasio Band 2022-07-02 Peach Music Festival Scranton, Pa. AKG CK63>SD Mix Pre 6 24/48
Trey Anastasio Band
Peach Music Festival
The Pavilion at Montage Mounrtain
Scranton, PA
July 2, 2022

10 PM

Source: AKG CK63>Sound Devices Mix Pre 6 @ 24/48
Location: At SBD, left of center. Box 16. Stand at 12 feet.
Transfer: SD card>Adobe Audition 3.0>CD wav>TLH>Flac24
Taper: Tony Suraci

*24 Bit*

Set One:

01 Intro
02 Blaze On
03 Sand
04 Mozambique
05 Set Your Soul Free
06 Olivia
07 Everything's Right
08 ...And Flew Away
09 Gotta Jibboo
10 Ghost
11 Roll like a River
12 Simple Twist Up Dave
13 The Moma Dance (with Celisse Henderson)
14 A Life Beyond the Dream (with Celisse Henderson)
15 Rise/Come Together

Encore:
16 Carini